无损音乐论坛-享受音乐,感悟精彩人生!

 找回密码
 立即注册

扫一扫,访问微社区

QQ登录

只需一步,快速开始

查看: 2548|回复: 3

[WAV] 【张玮伽 - 醉情人】最受欢迎的磁性发烧女声[WAV+CUE/百度]

[复制链接]
  • TA的每日心情
    开心
    2021-2-5 10:45
  • 签到天数: 1 天

    [LV.1]初来乍到

    4561

    主题

    4562

    帖子

    6902

    积分

    管理员

    Rank: 9Rank: 9Rank: 9

    积分
    6902

    终身成就

    发表于 2017-6-23 23:57:04 | 显示全部楼层 |阅读模式

    2016021322310779.jpg

    专辑名称:醉情人
    专辑歌手:张玮伽
    制作公司:未知
    上市发行: 未知
    资源品质:WAV+CUE

    专辑介绍:
    流行与民族的完美碰撞,上帝抚摸过的嗓音,一听钟情的兴奋时刻,体会无懈可击的魅力诱惑。

    专辑曲目:
    01. 模特    [0:04:59.65]
    02. 泡沫    [0:04:39.58]
    03. 微风细雨    [0:03:59.02]
    04. 怎么说我不爱你    [0:04:48.59]
    05. 亲爱的路人    [0:05:16.27]
    06. 情人    [0:04:13.28]
    07. 小苹果    [0:03:31.71]
    08. 别再说    [0:03:20.28]
    09. 用情最深的人    [0:04:08.47]
    10. 一万个舍不得    [0:04:00.07]
    11. 爱情错觉    [0:04:22.36]
    12. 女人如烟    [0:04:28.50]
    13. 不要再说爱我    [0:04:43.26]
    14. 伤心的话留到明天再说    [0:04:20.37]
    15. 两个人的回忆一个人过    [0:04:18.62]
    [163music]1_1_29294272_微风细雨(张玮伽)[/163music]

    游客,如果您要查看本帖隐藏内容请回复


    1. Exact Audio Copy V1.1 from 23. June 2015

    2. EAC 抓取日志文件从13. 一月 2016, 10:45

    3. 张玮伽 / 醉情人

    4. 使用驱动器  :TSSTcorpCDDVDW SH-224DB   Adapter: 1  ID: 0

    5. 读取模式      : 可靠Secure
    6. 使用精确流     : 是
    7. 清空音频缓存    : 是
    8. 使用 C2 指示器 : 否

    9. 读取偏移校正:               : 6
    10. 读取 Lead-In 和 Lead-Out : 否
    11. 用静音填充抓取中丢失偏移的采样       : 是
    12. 去除首尾静音块               : 否
    13. 在CRC 计算中使用了空样本       : 是
    14. 已用接口                  : Win NT 及 2000 本地 Win32 接口

    15. 所用输出模式: : 内部 WAV 函数
    16. 样本格式    : 44.100 Hz; 16 Bit; 立体声


    17. 已抓取 CD 的 TOC

    18.      音轨 |    起始    |    长度    |  起始扇区  |  结束扇区  
    19.     --------------------------------------------
    20.       1 |  0:00.00 |  4:59.65 |      0 |  22489
    21.       2 |  4:59.65 |  4:39.58 |  22490 |  43472
    22.       3 |  9:39.48 |  3:59.02 |  43473 |  61399
    23.       4 | 13:38.50 |  4:48.59 |  61400 |  83058
    24.       5 | 18:27.34 |  5:16.27 |  83059 | 106785
    25.       6 | 23:43.61 |  4:13.28 | 106786 | 125788
    26.       7 | 27:57.14 |  3:31.71 | 125789 | 141684
    27.       8 | 31:29.10 |  3:20.28 | 141685 | 156712
    28.       9 | 34:49.38 |  4:08.47 | 156713 | 175359
    29.      10 | 38:58.10 |  4:00.07 | 175360 | 193366
    30.      11 | 42:58.17 |  4:22.36 | 193367 | 213052
    31.      12 | 47:20.53 |  4:28.50 | 213053 | 233202
    32.      13 | 51:49.28 |  4:43.26 | 233203 | 254453
    33.      14 | 56:32.54 |  4:20.37 | 254454 | 273990
    34.      15 | 60:53.16 |  4:18.62 | 273991 | 293402


    35. 范围状态及错误

    36. 已选择范围

    37.      文件名 F:\发烧唱片\张玮伽 - 醉情人\张玮伽 - 醉情人.wav

    38.      峰值电平 100.0 %
    39.      抓取速度 4.7 X
    40.      范围质量 100.0 %
    41.      复制 CRC BEA32B59
    42.      复制成功

    43. 没有错误发生


    44. AccurateRip 摘要

    45. 音轨  1  在数据库中不存在
    46. 音轨  2  在数据库中不存在
    47. 音轨  3  在数据库中不存在
    48. 音轨  4  在数据库中不存在
    49. 音轨  5  在数据库中不存在
    50. 音轨  6  在数据库中不存在
    51. 音轨  7  在数据库中不存在
    52. 音轨  8  在数据库中不存在
    53. 音轨  9  在数据库中不存在
    54. 音轨 10  在数据库中不存在
    55. 音轨 11  在数据库中不存在
    56. 音轨 12  在数据库中不存在
    57. 音轨 13  在数据库中不存在
    58. 音轨 14  在数据库中不存在
    59. 音轨 15  在数据库中不存在

    60. 没有任何音轨在 AccurateRip 数据库中有记录

    61. 状态报告结尾

    62. ---- CUETools DB Plugin V2.1.6

    63. [CTDB TOCID: lP11a.9r6yHLVll4yMik2G7S9ZM-] disk not present in database
    64. Submit result: unrecognized or virtual drive


    65. ==== 记录校验日志 9F6ABD4850C5C6B77E05CA1F6F4CC5E461694F60E7FB2FCD76A1BA65F83AD501 ====
    复制代码
  • TA的每日心情
    擦汗
    1 小时前
  • 签到天数: 166 天

    [LV.7]常住居民III

    37

    主题

    181

    帖子

    1041

    积分

    音乐榜眼

    Rank: 10Rank: 10Rank: 10

    积分
    1041
    发表于 2021-4-30 08:11:46 | 显示全部楼层
    动听的歌声,感谢分享。
    回复

    使用道具 举报

  • TA的每日心情

    2021-9-1 16:06
  • 签到天数: 1 天

    [LV.1]初来乍到

    1

    主题

    4

    帖子

    27

    积分

    音乐秀才

    Rank: 2

    积分
    27
    发表于 2021-9-1 16:18:21 | 显示全部楼层
    谢谢楼主的分享,都是经典
    回复

    使用道具 举报

  • TA的每日心情
    开心
    2021-9-3 08:35
  • 签到天数: 2 天

    [LV.1]初来乍到

    1

    主题

    8

    帖子

    35

    积分

    音乐秀才

    Rank: 2

    积分
    35
    发表于 2021-9-2 15:58:53 | 显示全部楼层
    tingtingkan
    回复

    使用道具 举报

    您需要登录后才可以回帖 登录 | 立即注册

    本版积分规则

    QQ|手机版|无损音乐论坛 ( 粤ICP备17071233号-1 )

    GMT+8, 2022-1-19 18:00 , Processed in 0.071348 second(s), 33 queries .

    Powered by Discuz! X3.4

    Copyright © 2001-2020, Tencent Cloud.

    快速回复 返回顶部 返回列表